Overclock.net › Forums › Specialty Builds › HTPC › HTPC acting up with 720P DTS
New Posts  All Forums:Forum Nav:

HTPC acting up with 720P DTS - Page 3

post #21 of 23
Still not there. Paste the output of "text" view.
 
Quiet Desktop
(15 items)
 
 
CPUMotherboardGraphicsRAM
i7-970 MSI X-58 Pro-E 8600GT 6 GB (3 x 2GB) Corsair DDR3 1333 
Hard DriveHard DriveCoolingOS
Hitachi Deskstar 2TB 32GB Patriot SSD Scythe Big Shuriken 2 Rev. B Ubuntu Server 
PowerCaseOtherOther
COOLMAX 700 watt modular Norco RPC-3216 Areca ARC-1222 w/ BBU 4 SFF-8087 Cables 
CPUMotherboardRAMHard Drive
i5-2500k ASUS P8Z68-M Pro 16 GB (4 x 4GB) Mushkin Enhanced Silverline DDR... 64GB Kingston SSD 
Optical DriveCoolingOSMonitor
Blu-ray reader and DVD/CD burner combo drive Scythe Big Shuriken 2 Rev. B Windows 7 Ultimate x64 1440x900 old LG LCD with anti-glare film peeled... 
KeyboardPowerCaseMouse
Dusty old Dell PS/2 Seasonic 560 watt modular Lian-li PC-V354B Some generic one from Best Buy 
Mouse PadAudioAudio
Plain black ASUS Xonar Essence STX Bottlehead Crack w/ Speedball 
  hide details  
Reply
 
Quiet Desktop
(15 items)
 
 
CPUMotherboardGraphicsRAM
i7-970 MSI X-58 Pro-E 8600GT 6 GB (3 x 2GB) Corsair DDR3 1333 
Hard DriveHard DriveCoolingOS
Hitachi Deskstar 2TB 32GB Patriot SSD Scythe Big Shuriken 2 Rev. B Ubuntu Server 
PowerCaseOtherOther
COOLMAX 700 watt modular Norco RPC-3216 Areca ARC-1222 w/ BBU 4 SFF-8087 Cables 
CPUMotherboardRAMHard Drive
i5-2500k ASUS P8Z68-M Pro 16 GB (4 x 4GB) Mushkin Enhanced Silverline DDR... 64GB Kingston SSD 
Optical DriveCoolingOSMonitor
Blu-ray reader and DVD/CD burner combo drive Scythe Big Shuriken 2 Rev. B Windows 7 Ultimate x64 1440x900 old LG LCD with anti-glare film peeled... 
KeyboardPowerCaseMouse
Dusty old Dell PS/2 Seasonic 560 watt modular Lian-li PC-V354B Some generic one from Best Buy 
Mouse PadAudioAudio
Plain black ASUS Xonar Essence STX Bottlehead Crack w/ Speedball 
  hide details  
Reply
post #22 of 23
Thread Starter 
Code:
General
Unique ID                                : 234303680509999604946291947244022311779 (0xB0453F580F4A5D6FB0691F4B1D22AB63)
Complete name                            : W:\MOVIE.mkv
Format                                   : Matroska
Format version                           : Version 4 / Version 2
File size                                : 7.25 GiB
Duration                                 : 2h 10mn
Overall bit rate                         : 7 961 Kbps
Movie name                               : MOVIE
Encoded date                             : UTC 2010-02-22 21:41:31
Writing application                      : mkvmerge v5.9.0 ('On The Loose') built on Dec  9 2012 15:37:01
Writing library                          : libebml v1.3.0 + libmatroska v1.4.0

Video
ID                                       : 1
Format                                   : AVC
Format/Info                              : Advanced Video Codec
Format profile                           : High@L4.1
Format settings, CABAC                   : Yes
Format settings, ReFrames                : 9 frames
Codec ID                                 : V_MPEG4/ISO/AVC
Duration                                 : 2h 10mn
Bit rate                                 : 5 654 Kbps
Width                                    : 1 280 pixels
Height                                   : 544 pixels
Display aspect ratio                     : 2.35:1
Frame rate mode                          : Constant
Frame rate                               : 23.976 fps
Color space                              : YUV
Chroma subsampling                       : 4:2:0
Bit depth                                : 8 bits
Scan type                                : Progressive
Bits/(Pixel*Frame)                       : 0.339
Stream size                              : 5.15 GiB (71%)
Writing library                          : x264 core 130 r2273 b3065e6
Encoding settings                        : cabac=1 / ref=9 / deblock=1:-3:-3 / analyse=0x3:0x133 / me=tesa / subme=10 / psy=1 / psy_rd=1.10:0.00 / mixed_ref=1 / me_range=16 / chroma_me=1 / trellis=2 / 8x8dct=1 / cqm=0 / deadzone=21,11 / fast_pskip=0 / chroma_qp_offset=-2 / threads=18 / lookahead_threads=3 / sliced_threads=0 / nr=0 / decimate=0 / interlaced=0 / bluray_compat=0 / constrained_intra=0 / bframes=9 / b_pyramid=2 / b_adapt=2 / b_bias=0 / direct=3 / weightb=1 / open_gop=0 / weightp=2 / keyint=240 / keyint_min=23 / scenecut=40 / intra_refresh=0 / rc_lookahead=240 / rc=crf / mbtree=0 / crf=16.6 / qcomp=0.60 / qpmin=0 / qpmax=69 / qpstep=4 / vbv_maxrate=62500 / vbv_bufsize=78125 / crf_max=0.0 / nal_hrd=none / ip_ratio=1.40 / pb_ratio=1.30 / aq=2:0.80
Language                                 : English
Default                                  : Yes
Forced                                   : No

Audio #1
ID                                       : 2
Format                                   : AC-3
Format/Info                              : Audio Coding 3
Mode extension                           : CM (complete main)
Format settings, Endianness              : Big
Codec ID                                 : A_AC3
Duration                                 : 2h 10mn
Bit rate mode                            : Constant
Bit rate                                 : 640 Kbps
Channel(s)                               : 6 channels
Channel positions                        : Front: L C R, Side: L R, LFE
Sampling rate                            : 48.0 KHz
Bit depth                                : 16 bits
Compression mode                         : Lossy
Stream size                              : 597 MiB (8%)
Language                                 : Polish
Default                                  : Yes
Forced                                   : No

Audio #2
ID                                       : 3
Format                                   : DTS
Format/Info                              : Digital Theater Systems
Mode                                     : 16
Format settings, Endianness              : Big
Codec ID                                 : A_DTS
Duration                                 : 2h 10mn
Bit rate mode                            : Constant
Bit rate                                 : 1 509 Kbps
Channel(s)                               : 6 channels
Channel positions                        : Front: L C R, Side: L R, LFE
Sampling rate                            : 48.0 KHz
Bit depth                                : 24 bits
Compression mode                         : Lossy
Stream size                              : 1.37 GiB (19%)
Language                                 : English
Default                                  : No
Forced                                   : No

Text
ID                                       : 4
Format                                   : UTF-8
Codec ID                                 : S_TEXT/UTF8
Codec ID/Info                            : UTF-8 Plain Text
Language                                 : Polish
Default                                  : No
Forced                                   : No

post #23 of 23
Those VBV rates seem pretty high. Likely too much for such a lightweight machine to handle.
 
Quiet Desktop
(15 items)
 
 
CPUMotherboardGraphicsRAM
i7-970 MSI X-58 Pro-E 8600GT 6 GB (3 x 2GB) Corsair DDR3 1333 
Hard DriveHard DriveCoolingOS
Hitachi Deskstar 2TB 32GB Patriot SSD Scythe Big Shuriken 2 Rev. B Ubuntu Server 
PowerCaseOtherOther
COOLMAX 700 watt modular Norco RPC-3216 Areca ARC-1222 w/ BBU 4 SFF-8087 Cables 
CPUMotherboardRAMHard Drive
i5-2500k ASUS P8Z68-M Pro 16 GB (4 x 4GB) Mushkin Enhanced Silverline DDR... 64GB Kingston SSD 
Optical DriveCoolingOSMonitor
Blu-ray reader and DVD/CD burner combo drive Scythe Big Shuriken 2 Rev. B Windows 7 Ultimate x64 1440x900 old LG LCD with anti-glare film peeled... 
KeyboardPowerCaseMouse
Dusty old Dell PS/2 Seasonic 560 watt modular Lian-li PC-V354B Some generic one from Best Buy 
Mouse PadAudioAudio
Plain black ASUS Xonar Essence STX Bottlehead Crack w/ Speedball 
  hide details  
Reply
 
Quiet Desktop
(15 items)
 
 
CPUMotherboardGraphicsRAM
i7-970 MSI X-58 Pro-E 8600GT 6 GB (3 x 2GB) Corsair DDR3 1333 
Hard DriveHard DriveCoolingOS
Hitachi Deskstar 2TB 32GB Patriot SSD Scythe Big Shuriken 2 Rev. B Ubuntu Server 
PowerCaseOtherOther
COOLMAX 700 watt modular Norco RPC-3216 Areca ARC-1222 w/ BBU 4 SFF-8087 Cables 
CPUMotherboardRAMHard Drive
i5-2500k ASUS P8Z68-M Pro 16 GB (4 x 4GB) Mushkin Enhanced Silverline DDR... 64GB Kingston SSD 
Optical DriveCoolingOSMonitor
Blu-ray reader and DVD/CD burner combo drive Scythe Big Shuriken 2 Rev. B Windows 7 Ultimate x64 1440x900 old LG LCD with anti-glare film peeled... 
KeyboardPowerCaseMouse
Dusty old Dell PS/2 Seasonic 560 watt modular Lian-li PC-V354B Some generic one from Best Buy 
Mouse PadAudioAudio
Plain black ASUS Xonar Essence STX Bottlehead Crack w/ Speedball 
  hide details  
Reply
New Posts  All Forums:Forum Nav:
  Return Home
  Back to Forum: HTPC
Overclock.net › Forums › Specialty Builds › HTPC › HTPC acting up with 720P DTS